maidsandshine.com - The Largest Bittorent System Login   |    Register
Latest Articles
Most searched
Hot torrents
Movie Torrents
View Torrent Info: Incredibles 2 (2018) [720p] [YTS] [YIFY]
View Torrent Info: Alpha (2018) [720p] [YTS] [YIFY]
View Torrent Info: Christopher Robin (2018) [720p] [YTS] [YIFY]
View Torrent Info: BlacKkKlansman (2018) [720p] [YTS] [YIFY]
View Torrent Info: The Witch in the Window (2018) [720p] [YTS] [YIFY]
View Torrent Info: The Scorpion King: Book of Souls (2018) [720p] [YTS] [YIFY]
View Torrent Info: Juliet, Naked (2018) [720p] [YTS] [YIFY]
View Torrent Info: An Interview with God (2018) [720p] [YTS] [YIFY]
View Torrent Info: Adam Sandler: 100% Fresh (2018) [720p] [YTS] [YIFY]
View Torrent Info: The Dark (2018) [720p] [YTS] [YIFY]
Hot torrents
TV Torrents
View Torrent Info: Supergirl.S04E02.HDTV.x264-SVA[eztv]
View Torrent Info: Titans.2018.S01E03.WEB.x264-PHOENiX[eztv]
View Torrent Info: Blindspot.S04E03.HDTV.x264-KILLERS[eztv]
View Torrent Info: Arrow.S07E02.HDTV.x264-SVA[eztv]
View Torrent Info: DCs.Legends.of.Tomorrow.S04E01.HDTV.x264-SVA[eztv]
View Torrent Info: Hawaii.Five-0.2010.S09E05.HDTV.x264-KILLERS[eztv]
View Torrent Info: The.Flash.2014.S05E03.HDTV.x264-SVA[eztv]
View Torrent Info: The.Big.Bang.Theory.S12E06.HDTV.x264-SVA[eztv]
View Torrent Info: the.last.ship.s05e07.webrip.x264-tbs[eztv]
View Torrent Info: The.Walking.Dead.S09E03.HDTV.x264-SVA[eztv]
maidsandshine.com > Categories > Movies torrents > HD torrents


Browse Movies torrents

Assassins Creed (2016) x 804 (1080p) DD5.1 - 2.0 x264 Phun Psyz torrent



Download torrent: Download Assassins Creed (2016) x 804 (1080p) DD5.1 - 2.0 x264 Phun Psyz torrent Magnet link Bookmark Torrent: Assassins Creed (2016) x 804 (1080p) DD5.1 - 2.0 x264 Phun Psyz Assassins Creed (2016) x 804 (1080p) DD5.1 - 2.0 x264 Phun Psyz torrent | if not working, try instead: Magnet Link
Info hash: D2E95A910788BAD43ABB816ECF5DEDA257BD7A9E
Category: Categories > Movies torrents > HD torrents
Trackers:
12    View all torrent trackers >
Health:
 seeds: 4 ,  leechers: 5 |  Update >
Torrent language:  
Total Size: 1.80 GB
Torrent status: Added by trusted uploader Added by trusted uploader Trusted Uploader Site Friend Superman Sun
Uploader: Trusted Uploader Site Friend Superman Sun
Torrent added: 2017-12-13 17:40:04
 

Download Assassins Creed (2016) x 804 (1080p) DD5.1 - 2.0 x264 Phun Psyz torrent if not working, try downloading torrent using Download Assassins Creed (2016) x 804 (1080p) DD5.1 - 2.0 x264 Phun Psyz via Magnet Link




Torrent Description

www.imdb.com/title/tt2094766

Callum Lynch explores the memories of his ancestor Aguilar de Nerha and gains the skills of a Master Assassin, before taking on the secret Templar society.

Source: TERMiNAL (12.4 GiB)





Format : MPEG-4
Format profile : Base Media / Version 2
Codec ID : mp42 (isom/iso2/avc1/mp41)
File size : 1.83 GiB
Duration : 1 h 55 min
Overall bit rate mode : Variable
Overall bit rate : 2 272 kb/s
Writing application : HandBrake 1.0.7 2017040900

Video
ID : 1
Format : AVC
Format/Info : Advanced Video Codec
Format profile : [email protected]
Format settings : CABAC / 8 Ref Frames
Format settings, CABAC : Yes
Format settings, RefFrames : 8 frames
Codec ID : avc1
Codec ID/Info : Advanced Video Coding
Duration : 1 h 55 min
Bit rate : 1 784 kb/s
Width : 1 920 pixels
Height : 804 pixels
Display aspect ratio : 2.40:1
Frame rate mode : Variable
Frame rate : 23.976 (24000/1001) FPS
Minimum frame rate : 23.974 FPS
Maximum frame rate : 23.981 FPS
Color space : YUV
Chroma subsampling : 4:2:0
Bit depth : 8 bits
Scan type : Progressive
Bits/(Pixel*Frame) : 0.048
Stream size : 1.44 GiB (79%)
Writing library : x264 core 148 r2708 86b7198
Color range : Limited
Color primaries : BT.2020
Transfer characteristics : PQ
Matrix coefficients : BT.2020 non-constant
Menus : 6

Audio #1
ID : 2
Format : AC-3
Format/Info : Audio Coding 3
Format settings, Endianness : Big
Codec ID : ac-3
Duration : 1 h 55 min
Bit rate mode : Constant
Bit rate : 320 kb/s
Channel(s) : 6 channels
Channel positions : Front: L C R, Side: L R, LFE
Sampling rate : 48.0 kHz
Frame rate : 31.250 FPS (1536 SPF)
Bit depth : 16 bits
Compression mode : Lossy
Stream size : 264 MiB (14%)
Title : Surround / Surround
Language : English
Service kind : Complete Main
Default : Yes
Alternate group : 1
Fallback To : 3

Audio #2
ID : 3
Format : AAC
Format/Info : Advanced Audio Codec
Format profile : LC
Codec ID : mp4a-40-2
Duration : 1 h 55 min
Bit rate mode : Variable
Bit rate : 160 kb/s
Channel(s) : 2 channels
Channel positions : Front: L R
Sampling rate : 48.0 kHz
Frame rate : 46.875 FPS (1024 SPF)
Compression mode : Lossy
Stream size : 132 MiB (7%)
Title : Stereo / Stereo
Language : English
Default : Inherited From: 2
Alternate group : 1
Fallback From : 2
Menus : 6

Text #1
ID : 4
Format : Timed Text
Muxing mode : sbtl
Codec ID : tx3g
Duration : 1 h 44 min
Bit rate mode : Variable
Bit rate : 30 b/s
Stream size : 22.9 KiB (0%)
Language : English
Default : Yes
Forced : No
Alternate group : 3
Menus : 6

Text #2
ID : 5
Format : Timed Text
Muxing mode : sbtl
Codec ID : tx3g
Duration : 1 h 55 min
Bit rate mode : Variable
Bit rate : 27 b/s
Stream size : 22.6 KiB (0%)
Language : French
Default : No
Forced : No
Alternate group : 3
Menus : 6

Menu
ID : 6
Codec ID : text
Duration : 1 h 55 min
Language : English
Bit rate mode : CBR
Menu For : 1,3,4,5
00:00:00.000 : 00:00:00.000
00:06:04.155 : 00:06:04.155
00:09:32.697 : 00:09:32.697
00:12:47.517 : 00:12:47.517
00:16:47.715 : 00:16:47.715
00:21:07.433 : 00:21:07.433
00:26:56.448 : 00:26:56.448
00:31:55.080 : 00:31:55.080
00:38:06.284 : 00:38:06.284
00:41:43.167 : 00:41:43.167
00:46:33.040 : 00:46:33.040
00:50:10.257 : 00:50:10.257
00:53:04.390 : 00:53:04.390
00:56:17.624 : 00:56:17.624
00:59:26.480 : 00:59:26.480
01:02:32.582 : 01:02:32.582
01:06:37.035 : 01:06:37.035
01:13:08.759 : 01:13:08.759
01:18:45.888 : 01:18:45.888
01:23:01.101 : 01:23:01.101
01:30:17.996 : 01:30:17.996
01:34:18.194 : 01:34:18.194
01:37:45.360 : 01:37:45.193
01:40:51.003 : 01:40:51.003



#phunpsyz -> To avoid fakes, ALWAYS check that the torrent was added on maidsandshine.com by phunpsyz

http://maidsandshine.com/



Download Assassins Creed (2016) x 804 (1080p) DD5.1 - 2.0 x264 Phun Psyz torrent


Comments (please add your comment)
No comments



Home - Browse Torrents - Upload Torrent - Stat - Forum - FAQ - Login
maidsandshine.com is in compliance with copyrights
2006-2018 maidsandshine.com
SitemapAriana Grande | Prism Ark | 杨子姗