... And Finally: Black Bolt | Sanson BluRay 1080p | 14x01 Sobrenatural
maidsandshine.com - The Largest Bittorent System Login   |    Register
Latest Articles
Most searched
Hot torrents
Movie Torrents
View Torrent Info: Incredibles 2 (2018) [720p] [YTS] [YIFY]
View Torrent Info: BlacKkKlansman (2018) [720p] [YTS] [YIFY]
View Torrent Info: The Scorpion King: Book of Souls (2018) [720p] [YTS] [YIFY]
View Torrent Info: The Witch in the Window (2018) [720p] [YTS] [YIFY]
View Torrent Info: Juliet, Naked (2018) [720p] [YTS] [YIFY]
View Torrent Info: Galveston (2018) [720p] [YTS] [YIFY]
View Torrent Info: The Night Comes for Us (2018) [720p] [YTS] [YIFY]
View Torrent Info: An Interview with God (2018) [720p] [YTS] [YIFY]
View Torrent Info: Malicious (2018) [720p] [YTS] [YIFY]
View Torrent Info: The Dark (2018) [720p] [YTS] [YIFY]
Hot torrents
TV Torrents
View Torrent Info: Supergirl.S04E02.HDTV.x264-SVA[eztv]
View Torrent Info: Blindspot.S04E02.HDTV.x264-SVA[eztv]
View Torrent Info: Arrow.S07E02.HDTV.x264-SVA[eztv]
View Torrent Info: DCs.Legends.of.Tomorrow.S04E01.HDTV.x264-SVA[eztv]
View Torrent Info: The.Flash.2014.S05E03.HDTV.x264-SVA[eztv]
View Torrent Info: The.Big.Bang.Theory.S12E06.HDTV.x264-SVA[eztv]
View Torrent Info: the.last.ship.s05e07.webrip.x264-tbs[eztv]
View Torrent Info: family.guy.s17e04.web.x264-tbs[eztv]
View Torrent Info: The.Walking.Dead.S09E03.HDTV.x264-SVA[eztv]
View Torrent Info: Supergirl.S04E02.XviD-AFG[eztv]
maidsandshine.com > Categories > TV torrents > HEVC/x265 torrents


Browse TV torrents

Star Trek The Next Generation (1987) Season 04 S04 (1080p BluRay x265 HEVC 10bit AAC 7.1 Joy) [UTR] torrent



Download torrent: Download Star Trek The Next Generation (1987) Season 04 S04 (1080p BluRay x265 HEVC 10bit AAC 7.1 Joy) [UTR] torrent Magnet link Bookmark Torrent: Star Trek The Next Generation (1987) Season 04 S04 (1080p BluRay x265 HEVC 10bit AAC 7.1 Joy) [UTR] Star Trek The Next Generation (1987) Season 04 S04 (1080p BluRay x265 HEVC 10bit AAC 7.1 Joy) [UTR] torrent | if not working, try instead: Magnet Link
Info hash: 79C390FB8F087DB2A0AA87B6F6A3CF7DC86ABF64
Category: Categories > TV torrents > HEVC/x265 torrents
Trackers:
11    View all torrent trackers >
Health:
 seeds: 0 ,  leechers: 0 |  Update >
Torrent language:  
Total Size: 14.50 GB
Torrent status: Added by trusted uploader Added by trusted uploader Trusted Uploader Site Friend Superman Sun
Uploader: Trusted Uploader Site Friend Superman Sun
Torrent added: 2018-10-18 20:38:13
 

Download Star Trek The Next Generation (1987) Season 04 S04 (1080p BluRay x265 HEVC 10bit AAC 7.1 Joy) [UTR] torrent if not working, try downloading torrent using Download Star Trek The Next Generation (1987) Season 04 S04 (1080p BluRay x265 HEVC 10bit AAC 7.1 Joy) [UTR] via Magnet Link




Torrent Description








Media Information

Media Information


Code:

General
Format                                   : Matroska
Format version                           : Version 4 / Version 2
File size                                : 544 MiB
Duration                                 : 45 min 32 s
Overall bit rate                         : 1 670 kb/s
Encoded date                             : UTC 2018-10-02 15:29:57
Writing application                      : mkvmerge v24.0.0 ('Beyond The Pale') 64-bit
Writing library                          : libebml v1.3.6 + libmatroska v1.4.9
Writing frontend                         : StaxRip v1.8.2.0

Video
ID                                       : 1
Format                                   : HEVC
Format/Info                              : High Efficiency Video Coding
Format profile                           : Main [email protected]@Main
Codec ID                                 : V_MPEGH/ISO/HEVC
Duration                                 : 45 min 31 s
Bit rate                                 : 1 200 kb/s
Width                                    : 1 424 pixels
Height                                   : 1 072 pixels
Display aspect ratio                     : 4:3
Frame rate mode                          : Constant
Frame rate                               : 23.976 (24000/1001) FPS
Color space                              : YUV
Chroma subsampling                       : 4:2:0
Bit depth                                : 10 bits
Bits/(Pixel*Frame)                       : 0.033
Stream size                              : 391 MiB (72%)
Writing library                          : x265 2.8+19-bcdc610cf5f0:[Windows][MSVC 1914][64 bit] 10bit
Encoding settings                        : cpuid=1111039 / frame-threads=3 / numa-pools=8 / wpp / no-pmode / no-pme / no-psnr / ssim / log-level=2 / input-csp=1 / input-res=1424x1072 / interlace=0 / total-frames=65492 / level-idc=0 / high-tier=1 / uhd-bd=0 / ref=4 / no-allow-non-conformance / no-repeat-headers / annexb / no-aud / no-hrd / info / hash=0 / no-temporal-layers / open-gop / min-keyint=23 / keyint=250 / gop-lookahead=0 / bframes=4 / b-adapt=2 / b-pyramid / bframe-bias=0 / rc-lookahead=80 / lookahead-slices=4 / scenecut=40 / radl=0 / no-intra-refresh / ctu=64 / min-cu-size=8 / rect / no-amp / max-tu-size=32 / tu-inter-depth=1 / tu-intra-depth=1 / limit-tu=0 / rdoq-level=2 / dynamic-rd=0.00 / ssim-rd / signhide / no-tskip / nr-intra=0 / nr-inter=0 / no-constrained-intra / strong-intra-smoothing / max-merge=3 / limit-refs=3 / limit-modes / me=3 / subme=3 / merange=57 / temporal-mvp / weightp / no-weightb / no-analyze-src-pics / deblock=0:0 / sao / no-sao-non-deblock / rd=4 / no-early-skip / rskip / no-fast-intra / no-tskip-fast / no-cu-lossless / no-b-intra / no-splitrd-skip / rdpenalty=0 / psy-rd=0.00 / psy-rdoq=1.00 / no-rd-refine / no-lossless / cbqpoffs=0 / crqpoffs=0 / rc=abr / bitrate=1200 / qcomp=0.60 / qpstep=4 / stats-write=0 / stats-read=2 / cplxblur=20.0 / qblur=0.5 / vbv-maxrate=4500 / vbv-bufsize=9000 / vbv-init=0.9 / ipratio=1.40 / pbratio=1.30 / aq-mode=2 / aq-strength=0.80 / cutree / zone-count=0 / no-strict-cbr / qg-size=32 / no-rc-grain / qpmax=69 / qpmin=0 / no-const-vbv / sar=0 / overscan=0 / videoformat=5 / range=0 / colorprim=2 / transfer=2 / colormatrix=2 / chromaloc=0 / display-window=0 / max-cll=0,0 / min-luma=0 / max-luma=1023 / log2-max-poc-lsb=8 / vui-timing-info / vui-hrd-info / slices=1 / no-opt-qp-pps / no-opt-ref-list-length-pps / multi-pass-opt-rps / scenecut-bias=0.05 / no-opt-cu-delta-qp / no-aq-motion / no-hdr / no-hdr-opt / no-dhdr10-opt / no-idr-recovery-sei / analysis-reuse-level=10 / scale-factor=0 / refine-intra=0 / refine-inter=0 / refine-mv=0 / limit-sao / ctu-info=0 / no-lowpass-dct / refine-mv-type=0 / copy-pic=1 / max-ausize-factor=1.0 / no-dynamic-refine / no-single-sei
Default                                  : Yes
Forced                                   : No

Audio
ID                                       : 2
Format                                   : AAC
Format/Info                              : Advanced Audio Codec
Format profile                           : HE-AAC / LC
Codec ID                                 : A_AAC
Duration                                 : 45 min 32 s
Bit rate                                 : 288 kb/s
Channel(s)                               : 7 channels
Channel(s)_Original                      : 8 channels
Channel positions                        : Front: L C R, Side: L R, Back: L R, LFE
Sampling rate                            : 48.0 kHz / 24.0 kHz
Frame rate                               : 23.438 FPS (1024 spf)
Compression mode                         : Lossy
Delay relative to video                  : 31 ms
Stream size                              : 92.3 MiB (17%)
Language                                 : English
Default                                  : No
Forced                                   : No

Subtitle #1
ID                                       : 3
Format                                   : PGS
Muxing mode                              : zlib
Codec ID                                 : S_HDMV/PGS
Codec ID/Info                            : Picture based subtitle format used on BDs/HD-DVDs
Duration                                 : 45 min 28 s
Bit rate                                 : 39.2 kb/s
Count of elements                        : 1220
Stream size                              : 12.7 MiB (2%)
Title                                    : SDH
Language                                 : English
Default                                  : No
Forced                                   : No

Subtitle #2
ID                                       : 4
Format                                   : PGS
Muxing mode                              : zlib
Codec ID                                 : S_HDMV/PGS
Codec ID/Info                            : Picture based subtitle format used on BDs/HD-DVDs
Duration                                 : 45 min 28 s
Bit rate                                 : 34.9 kb/s
Count of elements                        : 1188
Stream size                              : 11.4 MiB (2%)
Language                                 : Danish
Default                                  : No
Forced                                   : No

Subtitle #3
ID                                       : 5
Format                                   : PGS
Muxing mode                              : zlib
Codec ID                                 : S_HDMV/PGS
Codec ID/Info                            : Picture based subtitle format used on BDs/HD-DVDs
Duration                                 : 45 min 28 s
Bit rate                                 : 39.7 kb/s
Count of elements                        : 1190
Stream size                              : 12.9 MiB (2%)
Language                                 : German
Default                                  : No
Forced                                   : No

Subtitle #4
ID                                       : 6
Format                                   : PGS
Muxing mode                              : zlib
Codec ID                                 : S_HDMV/PGS
Codec ID/Info                            : Picture based subtitle format used on BDs/HD-DVDs
Duration                                 : 45 min 28 s
Bit rate                                 : 40.6 kb/s
Count of elements                        : 1214
Stream size                              : 13.2 MiB (2%)
Language                                 : Spanish
Default                                  : No
Forced                                   : No

Subtitle #5
ID                                       : 7
Format                                   : PGS
Muxing mode                              : zlib
Codec ID                                 : S_HDMV/PGS
Codec ID/Info                            : Picture based subtitle format used on BDs/HD-DVDs
Duration                                 : 45 min 28 s
Bit rate                                 : 38.0 kb/s
Count of elements                        : 1192
Stream size                              : 12.4 MiB (2%)
Language                                 : French
Default                                  : No
Forced                                   : No

Subtitle #6
ID                                       : 8
Format                                   : PGS
Muxing mode                              : zlib
Codec ID                                 : S_HDMV/PGS
Codec ID/Info                            : Picture based subtitle format used on BDs/HD-DVDs
Duration                                 : 45 min 28 s
Bit rate                                 : 41.8 kb/s
Count of elements                        : 1190
Stream size                              : 13.6 MiB (3%)
Language                                 : Italian
Default                                  : No
Forced                                   : No

Subtitle #7
ID                                       : 9
Format                                   : PGS
Muxing mode                              : zlib
Codec ID                                 : S_HDMV/PGS
Codec ID/Info                            : Picture based subtitle format used on BDs/HD-DVDs
Duration                                 : 45 min 28 s
Bit rate                                 : 26.3 kb/s
Count of elements                        : 1054
Stream size                              : 8.55 MiB (2%)
Language                                 : Japanese
Default                                  : No
Forced                                   : No

Subtitle #8
ID                                       : 10
Format                                   : PGS
Muxing mode                              : zlib
Codec ID                                 : S_HDMV/PGS
Codec ID/Info                            : Picture based subtitle format used on BDs/HD-DVDs
Duration                                 : 45 min 28 s
Bit rate                                 : 39.3 kb/s
Count of elements                        : 1154
Stream size                              : 12.8 MiB (2%)
Language                                 : Dutch
Default                                  : No
Forced                                   : No

Subtitle #9
ID                                       : 11
Format                                   : PGS
Muxing mode                              : zlib
Codec ID                                 : S_HDMV/PGS
Codec ID/Info                            : Picture based subtitle format used on BDs/HD-DVDs
Duration                                 : 45 min 28 s
Bit rate                                 : 37.1 kb/s
Count of elements                        : 1188
Stream size                              : 12.1 MiB (2%)
Language                                 : Norwegian Bokmal
Default                                  : No
Forced                                   : No

Subtitle #10
ID                                       : 12
Format                                   : PGS
Muxing mode                              : zlib
Codec ID                                 : S_HDMV/PGS
Codec ID/Info                            : Picture based subtitle format used on BDs/HD-DVDs
Duration                                 : 45 min 28 s
Bit rate                                 : 36.0 kb/s
Count of elements                        : 1108
Stream size                              : 11.7 MiB (2%)
Language                                 : Finnish
Default                                  : No
Forced                                   : No

Subtitle #11
ID                                       : 13
Format                                   : PGS
Muxing mode                              : zlib
Codec ID                                 : S_HDMV/PGS
Codec ID/Info                            : Picture based subtitle format used on BDs/HD-DVDs
Duration                                 : 45 min 28 s
Bit rate                                 : 37.5 kb/s
Count of elements                        : 1166
Stream size                              : 12.2 MiB (2%)
Language                                 : Swedish
Default                                  : No
Forced                                   : No

Menu
00:00:00.000                             : en: Chapter 1
00:05:01.843                             : en: Chapter 2
00:11:20.263                             : en: Chapter 3
00:18:03.416                             : en: Chapter 4
00:25:21.395                             : en: Chapter 5
00:30:20.527                             : en: Chapter 6
00:44:40.553                             : en: Chapter 7



Source Information


Code:

Release:
Star Trek TNG S04 1080p BluRay REMUX AVC DTS-HD MA 7.1-EPSiLON   (193 GB)






#UTRCorp -> To avoid fakes, ALWAYS check that the torrent was added on maidsandshine.com by UTRCorp

http://maidsandshine.com/



Download Star Trek The Next Generation (1987) Season 04 S04 (1080p BluRay x265 HEVC 10bit AAC 7.1 Joy) [UTR] torrent


Comments (please add your comment)
No comments



Home - Browse Torrents - Upload Torrent - Stat - Forum - FAQ - Login
maidsandshine.com is in compliance with copyrights
2006-2018 maidsandshine.com
Sitemap